#TITLE:Chain;
#SUBTITLE:- Air Gear Opening;
#ARTIST:Back-On;
#TITLETRANSLIT:;
#SUBTITLETRANSLIT:;
#ARTISTTRANSLIT:;
#CREDIT:Jubo;
#BANNER:Air Gear OP Banner.avi;
#BACKGROUND:Air Gear OP BG1.jpg;
#LYRICSPATH:Air Gear OP Lyrics.lrc;
#CDTITLE:Jubo.png;
#MUSIC:Air Gear OP.mp3;
#OFFSET:1.480;
#SAMPLESTART:14.342;
#SAMPLELENGTH:17.444;
#SELECTABLE:YES;
#BPMS:0.000=92.000,8.000=184.000,164.000=92.000,166.000=184.000,230.000=92.000,234.000=184.000;
#STOPS:;
#BGCHANGES:3.375=Air Gear OP.avi=1.000=1=0=0,
262.000=Air Gear OP BG2.jpg=1.000=1=0=0,
99999=-nosongbg-=1.000=0=0=0 // don't automatically add -songbackground-
;
// cache tags:
#FIRSTBEAT:4.000;
#LASTBEAT:267.500;
#SONGFILENAME:Songs/nhac/[Jubo] Chain -Air Gear OP/Air Gear OP.sm;
#HASMUSIC:1;
#HASBANNER:1;
#MUSICLENGTH:91.479;
// end cache tags

//---------------dance-single - ----------------
#NOTES:
     dance-single:
     :
     Hard:
     9:
     0.698,0.730,0.339,0.087,0.126,408.000,31.000,8.000,0.000,0.000:
0000
0000
0000
0000
,
1000
0000
0001
1000
0000
0100
0000
0010
0000
0001
0000
0010
0000
0100
0000
0000
,
1000
0100
0010
0001
0010
0100
1000
1000
,
1000
1000
0010
0010
0010
0010
0010
0010
,
0001
0010
0100
1000
0100
0010
0001
0001
,
0001
0001
0100
0100
0100
0100
0100
0100
,
1000
0100
0010
0001
0010
0100
1000
1000
,
1000
1000
0010
0010
0010
0010
0010
0010
,
0001
0010
0100
1000
0100
0010
0001
0001
,
0001
0001
0100
0100
0100
0100
0100
0100
,
0001
0000
0100
0000
0001
0000
1000
0001
,
0000
0001
1000
0000
1000
0001
0000
0000
,
0010
0000
0100
0000
0010
0000
0100
0010
,
0001
1000
0010
0000
0100
0000
0010
0010
,
0000
0000
0000
0000
0000
0000
0000
0000
0100
0000
0000
0000
0000
0000
1000
0000
0000
0000
0000
0100
0000
0000
0000
0000
0000
0000
0000
0000
0010
0000
0000
0000
,
1000
0001
0100
0010
0010
1000
0100
0100
,
0000
0000
0000
0010
0000
0000
0000
0000
0000
0000
1000
0000
0010
0000
0100
0000
,
0001
0000
0000
0000
0100
0000
0000
1000
0000
0000
0001
0000
0000
0000
0000
0000
,
0100
0010
0100
0010
0100
0010
1000
0100
,
1000
0000
1000
0000
0001
0000
0100
0000
0000
0001
0000
0000
1000
0000
0010
0000
,
0000
1000
0001
0100
1000
0010
0001
0000
,
0100
0010
0010
0100
0000
0001
0001
0000
,
0000
1000
0100
0010
0001
0001
0000
1000
,
1000
0001
0010
0100
1000
1000
0000
1000
,
0010
0100
0001
0100
0010
0000
1000
0000
,
1100
1010
1001
1010
,
2000
0000
0100
0000
0100
0000
0000
3000
,
0011
0101
1001
0101
,
0002
0010
0010
0003
,
0101
0011
1001
1100
,
2000
0000
0000
0000
0000
0000
3000
0200
0000
0000
0000
0000
0000
0000
0000
0300
,
0020
0000
0000
0000
0000
0000
0030
0002
0000
0000
0000
0000
0000
0000
0000
0003
,
0100
0000
0000
0020
0000
0000
0000
0000
0000
0000
0000
0000
0030
0000
0000
0000
,
1000
0100
0010
0001
0010
0100
1000
0000
,
1000
0100
0001
0000
0001
0010
1000
0000
,
0010
0001
0100
0000
0100
1000
0010
0000
,
1000
1000
0010
0000
0001
0001
0100
0000
,
0100
0100
1000
0000
0010
0010
0001
0000
,
1000
0001
0100
0000
0001
1000
0010
0000
,
1000
0100
0010
0000
0001
0010
0100
0000
,
0010
0000
0000
0000
0100
0000
0000
0000
0010
0000
0000
0000
0000
0000
0000
0000
0010
0000
0000
0000
0000
0000
1000
0000
0000
0000
0000
0100
0000
0000
0000
0000
,
1100
0000
0000
0110
0000
0000
0011
0000
0001
0000
0001
0000
1000
0000
1000
0000
,
0010
0010
0100
0100
0001
0001
0100
0100
,
0100
0100
0100
0100
0001
0001
1000
1000
,
0010
0010
0100
0100
0001
0001
0100
0100
,
0100
0100
0100
0100
1000
1000
0001
0001
,
0100
0100
0010
0010
1000
1000
0010
0010
,
0010
0010
0010
0010
1000
1000
0001
0001
,
0100
0100
0010
0010
1000
1000
0010
0010
,
0010
0010
0010
0010
1000
0000
1100
0000
,
0100
0101
0001
0011
,
0010
1010
1000
1100
,
0100
0110
0010
0011
,
0001
1001
1000
1010
,
0010
0011
0001
1001
,
1000
1010
0010
0110
,
0100
0101
0001
1001
,
1000
0000
0000
0000
1100
0000
0000
0000
1000
0100
1000
0100
1000
0100
1000
0000
,
0001
0100
0001
0100
0001
0100
0001
0000
1000
0000
0100
0000
0010
0000
0001
0000
,
0010
0100
1000
1000
1000
1000
0010
0010
,
0010
0010
0010
0010
0001
0010
0100
1000
,
0100
0010
0001
0001
0001
0001
0100
0100
,
0100
0100
0100
0100
1000
0100
0010
0001
,
0010
0100
1000
1000
1000
1000
0010
0010
,
0010
0010
0010
0010
0001
0010
0100
1000
,
0100
0010
0001
0001
0001
0001
0100
0100
,
0100
0000
0100
0000
0100
0000
0200
0000
0000
0000
0000
0000
0000
0300
0000
0000
;

//---------------dance-single - ----------------
#NOTES:
     dance-single:
     :
     Challenge:
     11:
     1.000,1.000,1.000,0.164,0.191,503.000,147.000,15.000,0.000,0.000:
0000
0000
0000
0000
,
0011
0000
0110
1100
0000
0110
0000
0011
0000
0101
0000
0110
0000
1010
0000
0000
,
0110
0100
0010
0001
0101
0100
1000
1000
,
1000
1000
0100
0100
0110
0100
0100
0100
,
0110
0100
0010
0001
0101
0100
1000
1000
,
1000
1000
0100
0100
0110
0100
0100
0100
,
1001
0001
0100
0010
1010
0001
0010
0010
,
0010
0010
0100
0100
0110
0100
0100
0100
,
1001
0001
0100
0010
1010
0001
0010
0010
,
0010
0010
0100
0100
0110
0100
0100
0100
,
1001
0000
1100
0000
0100
0000
1010
1000
,
0000
0010
0011
0000
1000
0001
0101
0000
,
0010
0000
1100
0000
0001
0000
0101
0100
,
0001
1000
1001
0000
0100
0000
0110
0010
,
0000
0000
0000
0000
1000
0000
0000
0000
1001
0000
0000
0000
0000
0000
1000
0000
0000
0000
0000
0100
0000
0000
0000
0000
0101
0000
0000
0000
0100
0000
0000
0000
,
0001
0010
0011
0001
1000
0100
1100
1000
,
0100
0000
0000
0101
0000
0000
0000
0000
0100
0000
1000
0000
1100
0000
0100
0000
,
0001
0000
0000
0000
0101
0000
0000
1010
0000
0000
0011
0000
0110
0000
1010
0000
,
1000
0001
1000
0001
1000
0001
1000
0001
1000
0001
1000
0000
1001
0000
0100
0000
,
0010
0000
1000
0000
1010
0000
0010
0000
0000
0110
0000
0000
0110
0000
0010
0000
,
0000
0100
0101
0100
1000
0001
0011
0000
,
0010
1000
1100
0000
0100
0001
0101
0000
,
1000
0000
0100
0000
0110
0000
0001
0000
0100
0001
0100
0000
1001
0000
1000
0000
,
0001
0000
0010
0000
0110
0000
1000
0000
0010
1000
0010
0000
1001
0000
1000
0100
,
0010
0001
0010
0100
0010
1000
0100
0010
0001
0000
1000
0000
1000
0000
0000
0000
,
1100
1000
1010
1000
1001
1000
1010
1000
,
2200
0000
0000
3300
1100
0000
0000
0000
1100
0000
0000
0000
0110
0000
0000
0000
,
0011
0001
0101
0001
1001
0001
0101
0001
,
0022
0000
0000
0033
0011
0000
0000
0000
0011
0000
0000
0000
0110
0000
0000
0000
,
1100
0010
1001
1000
0110
0001
0011
0100
,
2001
0000
0001
0000
0001
0000
3000
0200
0000
0000
0010
0000
0010
0000
0000
0300
,
0120
0000
0100
0000
0100
0000
0030
0002
1000
0000
1000
0000
1000
0000
0000
0003
,
0011
0000
0010
0200
0000
0000
0000
0000
0001
0000
0000
0000
0301
0000
0000
0000
,
1100
1000
1001
1000
1100
0100
0110
0010
,
0011
0001
1001
0100
0010
0001
0011
0001
,
0010
0100
1100
1000
0010
0100
0110
0001
,
0100
0010
0110
0100
0001
0001
0101
0010
,
1000
1000
1010
0100
0010
1000
1001
0010
,
0100
0001
1001
0001
0010
0100
1100
1000
,
0100
0010
0011
0001
1000
0010
0110
1000
,
0001
0000
0000
0000
0010
0000
0000
0000
0110
0000
0000
0000
0001
0000
0000
0000
1000
0000
0000
0000
0000
0000
0010
0000
0000
0000
0000
0100
0000
0000
0000
0000
,
2200
0000
3300
0220
0000
0330
0011
0000
1001
0000
0001
0000
1000
0000
1000
0000
,
1010
0010
0100
0100
0001
0001
0100
0100
,
0110
0100
0100
0100
0001
0001
1000
1000
,
1010
0010
0100
0100
0001
0001
0100
0100
,
0110
0100
0100
0100
1000
1000
0001
0001
,
0101
0100
0010
0010
1000
1000
0010
0010
,
0110
0010
0010
0010
1000
1000
0001
0001
,
0101
0100
0010
0010
1000
1000
0010
0010
,
0110
0010
0010
0010
1000
0100
1100
0100
,
0001
0100
0101
0001
0010
0001
0011
0010
,
0010
0010
1010
0010
1001
0100
0101
0001
,
1000
0001
0101
0100
0001
0100
0110
0010
,
0010
0010
1010
0010
1001
1000
1100
1000
,
0010
1000
1001
0001
0010
0001
1001
1000
,
0100
1000
1010
0010
1000
0010
0110
0100
,
0010
0100
0101
0001
0010
0001
1001
1000
,
0001
0000
1000
0000
1100
0000
1100
0000
1100
0100
1100
0100
1100
0100
1100
0000
,
0101
0100
0101
0100
0101
0100
0101
0000
0110
0000
0100
0000
0010
0000
0001
0000
,
0101
0100
1000
1000
1000
1000
0100
0100
,
0110
0100
0100
0100
0110
0100
0010
0001
,
0101
0100
1000
1000
1000
1000
0100
0100
,
0110
0100
0100
0100
1001
0001
0100
0010
,
1010
0001
0010
0010
0010
0010
0100
0100
,
0110
0100
0100
0100
1001
0001
0100
0010
,
1010
0001
0010
0010
0010
0010
0100
0100
,
0110
0000
0110
0000
0110
0000
0220
0000
0000
0000
0000
0000
0000
0330
0000
0000
;

//---------------dance-single - ----------------
#NOTES:
     dance-single:
     :
     Medium:
     7:
     0.458,0.584,0.142,0.404,0.087,243.000,13.000,37.000,0.000,0.000:
0000
0000
0000
0000
,
1000
0000
0000
0001
0000
0010
0000
0100
0000
1000
0000
0100
0000
0010
0000
0000
,
0001
0000
0000
0010
0000
0000
1000
0000
,
0000
1000
0010
1000
0010
1000
0010
1000
,
0001
0000
0000
0010
0000
0000
1000
0000
,
0000
1000
0010
1000
0010
1000
0010
1000
,
0001
0000
0000
0010
0000
0000
1000
0000
,
0000
1000
0010
1000
0010
1000
0010
1000
,
0001
0000
0000
0010
0000
0000
1000
0000
,
0000
1000
0010
1000
0010
1000
0010
1000
,
0000
0000
0001
0000
0100
0000
0000
0010
,
0000
0000
1000
0000
0010
0100
0000
0000
,
0001
0100
1000
0010
,
0001
0000
1000
0000
0010
0000
0001
0001
,
0000
0000
0000
0000
0000
0000
0000
0000
0010
0000
0000
0000
0000
0000
2000
0000
0000
0000
0000
3000
0000
0000
0000
0000
0000
0000
0000
0000
1000
0000
0000
0000
,
0001
1000
0001
1000
1000
0100
0001
0001
,
0000
0000
0000
0010
0000
0000
0000
0000
0000
0000
0100
0000
0010
0000
0100
0000
,
0010
0000
0000
0000
0001
0000
0000
0100
0000
0000
0001
0000
0000
0000
0000
0000
,
0020
0000
0000
0000
0000
0030
2000
0000
,
3000
0000
0001
0000
1000
0000
0001
0000
0000
1000
0000
0000
1000
0000
0001
0000
,
0000
0000
0100
0000
0001
0000
0100
0000
0001
0000
0100
0000
0000
0000
0000
0010
,
0000
1000
0010
1000
0010
1000
0000
0000
,
0000
0001
1000
0001
1000
1000
0000
0001
,
0000
1000
0001
1000
0001
0001
0000
1000
,
0100
0010
0001
0010
0200
0000
1300
0000
,
2000
3200
0320
0032
,
0023
0000
0000
0000
0000
0000
0000
0030
,
0200
2300
3200
0320
,
0032
0000
0000
0000
0000
0000
0000
0003
,
0200
0302
2003
3020
,
2030
0000
0000
0000
0000
0000
3000
0200
0000
0000
0000
0000
0000
0000
0000
0300
,
0020
0000
0000
0000
0000
0000
0030
0002
0000
0000
0000
0000
0000
0000
0000
0003
,
0100
0000
0000
0020
0000
0000
0000
0000
0000
0000
0000
0000
0030
0000
0000
0000
,
1000
1000
1000
1000
1000
1000
1000
0000
,
0010
1010
1000
1001
,
0001
0011
0010
0110
,
0100
1100
1000
1001
,
0001
0011
0010
0011
,
0001
1001
0001
1001
,
0100
1100
0100
0110
,
0010
0000
0000
0000
0000
0000
0000
0000
0110
0000
0000
0000
0000
0000
0000
0000
0010
0000
0000
0000
0000
0000
0200
0000
0000
0000
0000
0300
0000
0000
0000
0000
,
2000
0000
0000
3200
0000
0000
0320
0000
0032
0000
0000
0000
0000
0000
0000
0000
,
0000
0000
0103
0200
0000
0000
0000
0000
,
0000
0000
0300
0000
,
0000
0000
0100
0000
0010
0000
0000
1000
,
0000
0010
0000
0100
0000
0000
2000
0000
,
0000
0000
0000
0000
,
0000
0000
0000
0000
,
0000
3000
0010
0000
0100
0000
0010
0010
,
0000
1000
2000
0000
,
0000
0000
3010
0020
0000
0000
0000
0000
,
0000
0000
0000
0000
,
0030
0000
1000
0000
0010
0000
0100
0001
,
0000
0000
0020
0000
0000
0030
0200
0000
,
0000
0000
0000
0000
,
0000
0000
0000
0000
,
0000
0000
0000
0000
,
0000
0000
0000
0000
0302
0000
0000
1003
,
2000
0000
0000
3001
0001
0000
0000
0010
,
0000
0000
1000
0000
0000
1000
0010
1000
,
0010
1000
0010
1000
0001
0000
0000
0010
,
0000
0000
1000
0000
0000
1000
0010
1000
,
0010
1000
0010
1000
0001
0000
0000
0010
,
0000
0000
1000
0000
0000
1000
0010
1000
,
0010
1000
0010
1000
0001
0000
0000
0010
,
0000
0000
1000
0000
0000
1000
0010
1000
,
0010
0000
1000
0000
0010
0000
2000
0000
0000
0000
0000
0000
0000
3000
0000
0000
;

//---------------dance-single - ----------------
#NOTES:
     dance-single:
     :
     Easy:
     5:
     0.334,0.511,0.000,0.645,0.055,155.000,0.000,59.000,0.000,0.000:
0000
0000
0000
0000
,
0001
0000
0000
1000
0000
1000
0000
0001
0000
0001
0000
1000
0000
1000
0000
0000
,
1000
0000
0000
0010
0000
0000
0100
0000
,
0000
0002
0000
0000
0000
0000
0000
0003
,
1000
0000
0000
0010
0000
0000
0100
0000
,
0000
0002
0000
0000
0000
0000
0000
0003
,
1000
0000
0000
0010
0000
0000
0100
0000
,
0000
0002
0000
0000
0000
0000
0000
0003
,
1000
0000
0000
0010
0000
0000
0100
0000
,
0000
0002
0000
0000
0000
0000
0003
0000
,
1000
1000
0000
0010
,
0000
0100
0000
0001
,
0000
1000
0000
0010
,
0000
0100
0000
0010
,
0000
1000
1000
0000
,
1000
0100
0001
0010
,
1000
0000
1000
1000
,
0100
0010
0001
0001
,
0002
0000
0000
0000
0000
0003
1000
0000
,
0010
0100
0001
0010
,
0100
1000
0100
0010
,
0001
0100
0010
1000
,
0000
0001
1000
0001
1000
0001
0000
1000
,
0001
1000
0001
1000
0001
0000
1000
0000
,
0100
0010
0002
1003
,
2000
3200
0320
0032
,
0023
0000
0000
0000
0000
0000
0000
0030
,
0200
2300
3200
0320
,
0032
0000
0000
0000
0000
0000
0000
0003
,
0200
0302
2003
3020
,
2030
0000
0000
0000
0000
0000
3000
0200
0000
0000
0000
0000
0000
0000
0000
0300
,
0020
0000
0000
0000
0000
0000
0030
0002
0000
0000
0000
0000
0000
0000
0000
0003
,
0000
0000
0000
0020
0000
0000
0000
0000
0000
0000
0000
0000
0030
0000
0000
0000
,
2000
3200
0320
0032
,
2003
0000
0000
3000
,
0002
0023
0230
2300
,
3002
0000
0000
0003
,
0020
0230
0302
2003
,
3020
0000
0000
0030
0002
0000
0000
0003
,
0200
0000
0300
1000
,
2000
0000
0000
0000
0000
0000
0000
0000
0000
0000
0000
0000
0000
0000
0000
0000
0000
0000
0000
0000
3200
0000
0000
0000
0000
0000
0000
0300
0000
0000
0000
0000
,
2000
0000
0000
3200
0000
0000
0320
0000
0032
0000
0000
0000
0000
0000
0000
0000
,
0000
0000
0000
0000
,
0000
0000
0003
0000
,
0000
0000
1000
0000
0001
0000
0000
0100
,
0000
0001
0000
1000
0000
0000
2000
0000
,
0000
0000
0000
0000
,
0000
0000
0000
0000
,
0000
3000
1000
0000
0010
0000
0001
0001
,
0000
0100
2000
0000
,
0000
0000
0000
0000
,
0000
0000
0000
0000
,
3000
0000
0001
0000
0100
0000
1000
1000
,
0000
0000
0002
0000
0000
0003
0200
0000
,
0000
0000
0000
0000
,
0000
0000
0000
0000
,
0000
0000
0000
0000
,
0000
0000
0000
0000
0302
0000
0000
0003
,
2000
0000
0000
3000
1000
0000
0000
0010
,
0000
0000
0100
0000
0000
0002
0000
0000
,
0000
0000
0000
0003
1000
0000
0000
0010
,
0000
0000
0100
0000
0000
0002
0000
0000
,
0000
0000
0000
0003
1000
0000
0000
0010
,
0000
0000
0100
0000
0000
0002
0000
0000
,
0000
0000
0000
0003
1000
0000
0000
0010
,
0000
0000
0100
0000
0000
0002
0000
0000
,
0000
0000
0000
0000
0003
0000
2000
0000
0000
0000
0000
0000
0000
3000
0000
0000
;

//---------------dance-single - ----------------
#NOTES:
     dance-single:
     :
     Beginner:
     2:
     0.128,0.183,0.000,0.295,0.000,55.000,0.000,27.000,0.000,0.000:
0000
0000
0000
0000
,
2000
0000
0000
3000
,
0002
0000
0000
0000
,
0000
0000
0000
0003
,
0200
0000
0000
0000
,
0000
0000
0000
0300
,
0020
0000
0000
0000
,
0000
0000
0000
0030
,
2000
0000
0000
0000
,
0000
0000
0000
3000
,
0000
0001
0000
0001
,
0000
1000
0000
1000
,
0000
0010
0000
0010
,
0000
0100
0000
0100
,
0000
0001
0000
0001
,
0000
1000
0000
1000
,
0000
0010
0000
0010
,
0000
0100
0000
0100
,
0000
0000
0000
0000
,
0000
0001
0000
0001
,
0000
0010
0000
0010
,
0000
0100
0000
0100
,
0000
0010
0000
0010
,
0000
0100
0000
0100
,
0000
1000
0000
1000
,
0000
0000
0000
0000
,
0020
0000
0000
0000
0000
0000
0000
0030
,
0000
0000
0000
0000
,
0200
0000
0000
0300
,
0000
0000
0000
0000
,
0002
0000
0000
0000
0000
0000
0000
0003
,
0000
0000
0000
0000
,
2000
0000
0000
0000
0000
0000
0000
3000
,
0000
0000
0000
0000
,
0020
0000
0000
0030
,
0000
0000
0000
0000
,
0200
0000
0000
0300
,
0000
0000
0000
0000
,
2000
0000
0000
0000
0000
0000
0000
3000
,
0000
0000
0000
0000
,
0002
0000
0000
0000
0000
0003
0000
0000
,
0200
0000
2300
0000
,
0000
0000
0000
0000
,
0000
0000
3000
0000
,
0000
0000
0020
0000
,
0000
0030
0000
0000
0200
0000
0000
0000
,
0000
0000
0000
0000
,
0000
0000
0000
0300
,
0000
0000
0020
0000
,
0000
0030
0000
0000
0200
0000
0000
0000
,
0000
0000
0000
0000
,
0000
0000
0000
0300
,
0000
0000
0002
0000
,
0000
0003
0000
2000
,
0000
0000
0000
0000
,
0000
0000
0000
0000
,
0000
0000
0000
0000
,
0000
3000
2000
0000
,
3020
0000
0032
0000
,
0000
0000
0000
0000
,
0000
0003
0200
0000
,
0000
0000
0000
0000
,
0000
0300
0020
0000
,
0000
0000
0000
0000
,
0000
0030
2000
0000
,
0000
0000
0000
0000
,
0000
0000
0000
0000
0000
0000
0000
3000
;
